Ashes in the Snow (2018) 720p WEB-DL x26 Torrent Free Download

Seeders : 988   &   Leechers : 829      11-01-2019 (1 week)
Ashes in the Snow (2018) 720p WEB-DL x26 Torrent Download
Added: ago by ENX265 ***** in Movies   593.2 MB   Hits : 17
Info Hash: 6AB9D9ABFDD27DCD5063D99A2BA0CB97FA749E88 Download
Ashes in the Snow (2018) 720p WEB-DL x26 Torrent Download

Anonymous and Direct Download movies , software , shows...

Fast Safe Anonymous
movies, software, shows...
Ashes in the Snow
Drama /History /Romance /War  .   98 min   8.0/10
Director : Marius A. Markevicius  
Tags: Ashes  in  the  Snow  (2018)  720p  

Released:
11 Jan 2019
In 1941, a 16 year-old aspiring artist and her family are deported to Siberia amidst Stalin's brutal dismantling of the Baltic region. One girl's passion for art and her never-ending hope will break the silence of history.

Torrent Description





Please post your requests at

ENX265.Com

Soures : Ashes.in.the.Snow.2018.1080p.WEB-DL.DD5.1.H264-FGT - Thank

Download Sample
http://enx265.com/ashes-in-the-snow-2018-720p-10bit-web-dl-2/

Code:

General

Format : Matroska
Format version : Version 4
File size : 593 MiB
Duration : 1 h 41 min
Overall bit rate : 820 kb/s
Movie name : Ashes.in.the.Snow.2018.1080p.WEB-DL.DD5.1.H264-FGT
Encoded date : UTC 2019-01-11 17:48:59
Writing application : mkvmerge v9.5.0 ('Quiet Fire') 64bit
Writing library : libebml v1.3.4 + libmatroska v1.4.5 / Lavf58.20.100

Video

ID : 1
Format : HEVC
Format/Info : High Efficiency Video Coding
Format profile : Main [email protected]@Main
Codec ID : V_MPEGH/ISO/HEVC
Duration : 1 h 41 min
Bit rate : 499 kb/s
Width : 1 280 pixels
Height : 688 pixels
Display aspect ratio : 1.85:1
Frame rate mode : Constant
Frame rate : 23.976 (24000/1001) FPS
Color space : YUV
Chroma subsampling : 4:2:0
Bit depth : 10 bits
Bits/(Pixel*Frame) : 0.024
Stream size : 361 MiB (61%)
Writing library : x265 2.9:[Windows][GCC 7.1.0][64 bit] 10bit
Default : Yes
Forced : No
Color range : Limited
Color primaries : BT.709
Transfer characteristics : BT.709
Matrix coefficients : BT.709

Audio

ID : 2
Format : AAC LC
Format/Info : Advanced Audio Codec Low Complexity
Codec ID : A_AAC-2
Duration : 1 h 41 min
Bit rate : 319 kb/s
Channel(s) : 6 channels
Channel layout : L R C Cb Rls Rb
Sampling rate : 48.0 kHz
Frame rate : 46.875 FPS (1024 SPF)
Compression mode : Lossy
Delay relative to video : -63 ms
Stream size : 231 MiB (39%)
Title : Surround
Language : English
Default : No
Forced : No





Sharing Widget


No Comments For This Torrent . Be The First to Comment

You must Login to Comment . Click Here to Login

Menu 1

Some content in menu 1.

Ashes in the Snow (2018) 720p WEB-DL x265 HEVC (ESUB) - ENX265 (Size: 593.2 MB)
  Ashes in the Snow (2018) 720p WEB-DL x265 HEVC (ESUB) - ENX265 593.2 MB
tracker name
udp://tracker.leechers-paradise.org:6969/announce
udp://zer0day.ch:1337/announce
udp://open.demonii.com:1337/announce
udp://tracker.coppersurfer.tk:6969/announce
udp://exodus.desync.com:6969/announce
µTorrent compatible trackers list

Relative Torrents

Torrent Name Size Age SEED LEECH
The Gifted S02E13 HDTV x264-CRAVERS[TGx]
Posted by    mazemaze16   in   TV
269.0 MB 3 minutes 423 433
Silent Witness S22E06 To Brighton to Brihton Part Two iP WEB-DL AAC2 0 x264 [ez
Posted by    EZTVag   in   TV
1,005.8 MB 3 minutes 134 598
Celebrity Big Brother US S02E02 720p WEBx264-TBS[TGx]
Posted by    mazemaze16   in   TV
983.8 MB 3 minutes 168 632
Lone Star Law S04E08 Fawn Stars HDTV x26-CRiMSON [eztv]
Posted by    EZTVag   in   TV
475.3 MB 3 minutes 72 738
Celebrity Big Brother US S02E02 WEB x264TBS[TGx]
Posted by    mazemaze16   in   TV
700.0 MB 3 minutes 773 504