Incredibles 2 (2018) BluRay - 720p - Ori Torrent Free Download

Seeders : 425   &   Leechers : 346      10-11-2018 (2 months)
Incredibles 2 (2018) BluRay - 720p - Ori Torrent Download
Added: ago by ictv ***** in Movies   1.3 GB   Hits : 71
Info Hash: FD01A560671ED57CD8272E026CF34054D090BD98 Download
Incredibles 2 (2018) BluRay - 720p - Ori Torrent Download

Anonymous and Direct Download movies , software , shows...

Fast Safe Anonymous
movies, software, shows...
Incredibles 2
Animation /Action /Adventure /Comedy /Family /Sci-Fi  .   118 min   7.8/10
Director : Brad Bird  
Writer: Brad Bird  
Tags: Incredibles  2  (2018)  BluRay  -  720p  

Released:
15 Jun 2018
The Incredibles hero family takes on a new mission, which involves a change in family roles: Bob Parr (Mr Incredible) must manage the house while his wife Helen (Elastigirl) goes out to save the world.

Torrent Description



www.movcr.cc



Incredibles 2 (2018) BluRay - 720p - Original Auds [Hindi + Telugu + Tamil + Eng] -1.3GB- MovCr



http://www.imdb.com/title/tt3606756/




General
Unique ID : 4201297384090527811740522041176823788 (0x32923F41EC96F825571C51CEBDD17EC)
Complete name : www.MovCr.cc - Incredibles 2 (2018) BluRay - 720p - Original Auds [Hindi + Telugu + Tamil + Eng] -1.3GB- MovCr.mkv
Format : Matroska
Format version : Version 4 / Version 2
File size : 1.28 GiB
Duration : 1 h 57 min
Overall bit rate mode : Variable
Overall bit rate : 1 556 kb/s
Movie name : www.MovCr.cc
Encoded date : UTC 2018-11-09 18:49:20
Writing application : mkvmerge v26.0.0 ('In The Game') 64-bit
Writing library : libebml v1.3.6 + libmatroska v1.4.9

Video
ID : 1
Format : AVC
Format/Info : Advanced Video Codec
Format profile : [email protected]
Format settings : CABAC / 4 Ref Frames
Format settings, CABAC : Yes
Format settings, RefFrames : 4 frames
Codec ID : V_MPEG4/ISO/AVC
Duration : 1 h 57 min
Bit rate : 1 050 kb/s
Width : 1 280 pixels
Height : 534 pixels
Display aspect ratio : 2.40:1
Original display aspect ratio : 2.40:1
Frame rate mode : Constant
Frame rate : 23.976 (24000/1001) FPS
Color space : YUV
Chroma subsampling : 4:2:0
Bit depth : 8 bits
Scan type : Progressive
Bits/(Pixel*Frame) : 0.064
Stream size : 885 MiB (67%)
Title : www.MovCr.cc
Writing library : x264 core 152
Encoding settings : cabac=1 / ref=4 / deblock=1:-1:-1 / analyse=0x3:0x133 / me=umh / subme=9 / psy=1 / psy_rd=1.00:0.15 / mixed_ref=1 / me_range=24 / chroma_me=1 / trellis=2 / 8x8dct=1 / cqm=0 / deadzone=21,11 / fast_pskip=0 / chroma_qp_offset=-3 / threads=12 / lookahead_threads=1 / sliced_threads=0 / nr=0 / decimate=1 / interlaced=0 / bluray_compat=0 / constrained_intra=0 / bframes=3 / b_pyramid=2 / b_adapt=2 / b_bias=0 / direct=3 / weightb=1 / open_gop=0 / weightp=2 / keyint=250 / keyint_min=23 / scenecut=40 / intra_refresh=0 / rc_lookahead=60 / rc=2pass / mbtree=1 / bitrate=1050 / ratetol=1.0 / qcomp=0.60 / qpmin=0 / qpmax=69 / qpstep=4 / cplxblur=20.0 / qblur=0.5 / vbv_maxrate=31250 / vbv_bufsize=31250 / nal_hrd=none / filler=0 / ip_ratio=1.40 / aq=1:1.00
Language : English
Default : Yes
Forced : No

Audio #1
ID : 2
Format : MPEG Audio
Format version : Version 1
Format profile : Layer 3
Format settings : Joint stereo / MS Stereo
Codec ID : A_MPEG/L3
Codec ID/Hint : MP3
Duration : 1 h 57 min
Bit rate mode : Variable
Bit rate : 128 kb/s
Channel(s) : 2 channels
Sampling rate : 44.1 kHz
Frame rate : 38.281 FPS (1152 SPF)
Compression mode : Lossy
Delay relative to video : -43 ms
Stream size : 106 MiB (8%)
Title : www.MovCr.cc
Writing library : LAME3.99r
Encoding settings : -m j -V 4 -q 3 -lowpass 17 --abr 128
Language : Telugu
Default : No
Forced : No

Audio #2
ID : 3
Format : MPEG Audio
Format version : Version 1
Format profile : Layer 3
Format settings : Joint stereo / MS Stereo
Codec ID : A_MPEG/L3
Codec ID/Hint : MP3
Duration : 1 h 57 min
Bit rate mode : Variable
Bit rate : 128 kb/s
Channel(s) : 2 channels
Sampling rate : 44.1 kHz
Frame rate : 38.281 FPS (1152 SPF)
Compression mode : Lossy
Delay relative to video : -43 ms
Stream size : 106 MiB (8%)
Title : www.MovCr.cc
Writing library : LAME3.99r
Encoding settings : -m j -V 4 -q 3 -lowpass 17 --abr 128
Language : Tamil
Default : No
Forced : No

Audio #3
ID : 4
Format : MPEG Audio
Format version : Version 1
Format profile : Layer 3
Format settings : Joint stereo / MS Stereo
Codec ID : A_MPEG/L3
Codec ID/Hint : MP3
Duration : 1 h 57 min
Bit rate mode : Variable
Bit rate : 128 kb/s
Channel(s) : 2 channels
Sampling rate : 48.0 kHz
Frame rate : 41.667 FPS (1152 SPF)
Compression mode : Lossy
Delay relative to video : -43 ms
Stream size : 106 MiB (8%)
Title : www.MovCr.cc
Writing library : LAME3.99r
Encoding settings : -m j -V 4 -q 3 -lowpass 17 --abr 128
Language : Hindi
Default : Yes
Forced : Yes

Audio #4
ID : 5
Format : AAC
Format/Info : Advanced Audio Codec
Format profile : LC
Codec ID : A_AAC-2
Duration : 1 h 57 min
Bit rate : 125 kb/s
Channel(s) : 2 channels
Channel positions : Front: L R
Sampling rate : 48.0 kHz
Frame rate : 46.875 FPS (1024 SPF)
Compression mode : Lossy
Delay relative to video : -43 ms
Stream size : 105 MiB (8%)
Title : www.MovCr.cc
Language : English
Default : No
Forced : No

Text
ID : 6
Format : UTF-8
Codec ID : S_TEXT/UTF8
Codec ID/Info : UTF-8 Plain Text
Duration : 1 h 46 min
Bit rate : 76 b/s
Count of elements : 1989
Stream size : 59.3 KiB (0%)
Title : www.MovCr.cc
Language : English
Default : Yes
Forced : No











Sharing Widget


No Comments For This Torrent . Be The First to Comment

You must Login to Comment . Click Here to Login

Menu 1

Some content in menu 1.

Incredibles 2 (2018) BluRay - 720p - Original Auds [Hindi + Telugu + T (Size: 1.3 GB)
  Incredibles 2 (2018) BluRay - 720p - Original Auds [Hindi + Telugu + T 1.3 GB
tracker name
udp://tracker.leechers-paradise.org:6969/announce
udp://zer0day.ch:1337/announce
udp://open.demonii.com:1337/announce
udp://tracker.coppersurfer.tk:6969/announce
udp://exodus.desync.com:6969/announce
µTorrent compatible trackers list

Relative Torrents

Torrent Name Size Age SEED LEECH
Villa Rides 1968 720p BluRay H264 AAC
Posted by    Trige   in   Movies
1.5 GB 25 seconds 484 683
UFC Fight Night 143 Cejudo vs Dillashaw EB x264-PUNCH[TGx]
Posted by    mazemaze16   in   TV
1.4 GB 3 minutes 235 488
Spaces Deepest Secrets S05E03 480p x264-SD [eztv]
Posted by    EZTVag   in   TV
170.7 MB 3 minutes 779 520
Vybz Kartel & Ili Sanchea - Boom It Off Remix) [2019 Single] [Dancehall] [FLAC
Posted by    GazaManiacRG   in   Music
24.9 MB 3 minutes 404 878
Polar 2019 HDRip XviD AC3 ENG SUB LLG
Posted by    LifeLongg   in   Movies
1.3 GB 6 minutes 759 634